<?xml version="1.0" standalone="no"?>
<!DOCTYPE svg PUBLIC "-//W3C//DTD SVG 1.1//EN" "http://www.w3.org/Graphics/SVG/1.1/DTD/svg11.dtd" >
<svg xmlns="http://www.w3.org/2000/svg">
<metadata>
This is a custom SVG webfont generated by Font Squirrel.
Copyright   : Copyright c 2007 Stephen G Hartke lastname at gmail dot com Licensed under OFL 11 with Reserved Font Name Aurulent
</metadata>
<defs>
<font id="webfontnBLuE5mt" horiz-adv-x="1126" >
<font-face units-per-em="2048" ascent="1638" descent="-410" />
<missing-glyph horiz-adv-x="512" />
<glyph unicode=" "  horiz-adv-x="512" />
<glyph unicode="&#x09;" horiz-adv-x="512" />
<glyph unicode="&#xa0;" horiz-adv-x="512" />
<glyph unicode="!" horiz-adv-x="522" d="M164 0v195h192v-195h-192zM164 1157v324h192v-324l-18 -758h-156z" />
<glyph unicode="&#x22;" horiz-adv-x="716" d="M82 1331v246h194v-246l-28 -246h-137zM440 1331v246h195v-246l-29 -246h-137z" />
<glyph unicode="#" horiz-adv-x="1290" d="M31 467l18 102h301l66 342h-301l18 103h303l88 467h138l-91 -467h252l88 467h138l-91 -467h302l-19 -103h-301l-66 -342h302l-19 -102h-303l-88 -467h-137l90 467h-252l-88 -467h-137l90 467h-301zM487 569h250l66 342h-250z" />
<glyph unicode="$" horiz-adv-x="1089" d="M82 127v158q223 -133 420 -140v539l-66 23q-59 20 -116.5 54t-112.5 83t-90 118.5t-35 147.5q0 150 118.5 249t301.5 118v149h108v-145q170 -8 338 -76v-180q-231 94 -338 106v-477q195 -76 296.5 -177.5t101.5 -258.5q0 -168 -112 -277.5t-286 -134.5v-151h-108v145 q-221 6 -420 127zM276 1137q0 -154 226 -244v440q-96 -12 -161 -63t-65 -133zM610 154q92 20 147.5 77.5t55.5 149.5q0 88 -51 148.5t-152 107.5v-483z" />
<glyph unicode="%" horiz-adv-x="1566" d="M82 1118q0 145 84 254t213 109t213 -107.5t84 -255t-84 -255t-213 -107.5t-213 107.5t-84 254.5zM162 -37l1055 1555h190l-1055 -1555h-190zM238 1118.5q0 -102.5 34.5 -174.5t106.5 -72t106.5 72t34.5 174.5t-34.5 174t-106.5 71.5t-106.5 -71.5t-34.5 -174zM893 362.5 q0 147.5 84 255t213 107.5t213 -107.5t84 -255.5q0 -145 -84 -253.5t-213 -108.5t-213 107.5t-84 255zM1049 362.5q0 -102.5 34.5 -174t106.5 -71.5t106.5 71.5t34.5 174t-34.5 174t-106.5 71.5t-106.5 -71.5t-34.5 -174z" />
<glyph unicode="&#x26;" horiz-adv-x="1290" d="M82 418q0 166 100.5 291t227.5 159q-94 143 -94.5 295t96 253.5t235.5 101.5q135 0 231.5 -95.5t96.5 -238.5q0 -131 -84 -243t-199 -161l269 -407q70 158 69 368h162q0 -299 -135 -512l149 -229h-190l-68 98q-150 -135 -358 -135q-135 0 -249 50t-186.5 156t-72.5 249z M276 416q0 -156 93.5 -231.5t228.5 -75.5q158 0 266 112l-352 508q-117 -43 -176.5 -123.5t-59.5 -189.5zM510 1171q0 -131 80 -249q94 45 142 115.5t48 152.5q0 76 -37.5 129t-97.5 53q-61 0 -98 -58.5t-37 -142.5z" />
<glyph unicode="'" horiz-adv-x="358" d="M82 1307v270h192v-270l-22 -271h-148z" />
<glyph unicode="(" horiz-adv-x="512" d="M82 645q0 133 46 308t89 288t129 313h166q-113 -260 -174.5 -476t-61.5 -433t61.5 -433t174.5 -476h-166q-86 201 -129 313.5t-89 287.5t-46 308z" />
<glyph unicode=")" horiz-adv-x="512" d="M0 -264q113 260 174.5 476t61.5 433t-61.5 433t-174.5 476h166q86 -201 129 -313.5t89 -287.5t46 -308t-46 -308t-89 -287.5t-129 -313.5h-166z" />
<glyph unicode="*" horiz-adv-x="999" d="M82 578l35 20q41 25 91 48l111 50l95 43q-27 14 -134.5 62.5t-162.5 81.5l-35 20l68 119l34 -21q55 -33 151.5 -101.5t121.5 -84.5q-2 39 -13.5 152.5t-11.5 175.5v41h135v-41q0 -61 -11 -175t-13 -153q25 16 121 85t151 101l35 21l68 -119l-35 -20q-41 -25 -91 -48 l-112 -51q-61 -27 -94 -43q27 -14 134 -62t163 -81l35 -20l-68 -119l-35 20q-55 33 -151.5 101.5l-120.5 85.5q2 -39 13 -153t11 -175v-41h-135v41q0 61 11.5 175t13.5 153q-25 -16 -121 -85t-152 -102l-34 -20z" />
<glyph unicode="+" horiz-adv-x="1177" d="M82 530v148h426v407h160v-407h426v-148h-426v-407h-160v407h-426z" />
<glyph unicode="," horiz-adv-x="522" d="M90 -291l74 357v129h192v-129l-145 -357h-121z" />
<glyph unicode="-" horiz-adv-x="614" d="M82 530v148h450v-148h-450z" />
<glyph unicode="." horiz-adv-x="522" d="M164 0v195h192v-195h-192z" />
<glyph unicode="/" horiz-adv-x="569" d="M-2 -264l408 1818h165l-407 -1818h-166z" />
<glyph unicode="0" d="M72 743q0 180 32.5 321.5t83 225.5t118 138.5t130 74t128 19.5t128 -19.5t130 -74t117.5 -138.5t83 -225t33 -322q0 -182 -33 -323t-83 -225t-117.5 -138.5t-130 -74t-128 -19.5t-128 19.5t-130 74t-118 138.5t-83 225t-32.5 323zM287 743q0 -119 4 -187.5t27.5 -164.5 t68.5 -168q74 -115 176.5 -114.5t175.5 114.5q45 72 68.5 168t28 165t4.5 187q0 117 -4.5 186.5t-28 165t-68.5 167.5q-74 115 -176 114.5t-176 -114.5q-45 -72 -68.5 -167.5t-27.5 -165t-4 -186.5z" />
<glyph unicode="1" d="M217 0v145h313v1172l-313 -123v145l352 154h156v-1348h287v-145h-795z" />
<glyph unicode="2" d="M82 0v160q33 100 100.5 194.5t142.5 160.5l154 140l144 137q63 62 104 144t41 168q0 113 -81 192.5t-195 79.5q-184 0 -373 -104v162q160 88 373 88q193 0 332 -120t139 -298q0 -78 -32 -154t-98.5 -151.5t-117.5 -123.5t-142 -126q-236 -205 -299 -404h689v-145h-881z " />
<glyph unicode="3" d="M164 25v168q203 -84 368 -84q123 0 198 85t75 226q0 129 -84 196q-125 96 -287 97h-100v145h100q135 0 234.5 76t99.5 194q0 102 -53 175t-183 73q-150 0 -331 -73v165q135 53 331 54q201 0 316 -108.5t115 -285.5q0 -119 -80 -204.5t-213 -128.5q88 -14 152.5 -52 t97 -81.5t52 -95.5t23.5 -84.5t4 -61.5q0 -207 -131 -332t-336 -125q-216 1 -368 62z" />
<glyph unicode="4" d="M20 446v146l682 893h195v-893h137v-146h-137v-446h-195v446h-682zM215 592h487v639z" />
<glyph unicode="5" d="M160 -4v164q127 -51 223 -51q422 0 422 340q0 193 -137 270q-133 74 -379 74q-37 0 -92 -2v694h766v-146h-605v-403q154 -4 272 -38t186.5 -83t111.5 -115.5t57 -126t14 -125t-14 -126t-55 -128t-106.5 -116.5t-179.5 -82t-261 -33q-141 0 -223 33z" />
<glyph unicode="6" d="M82 743q0 377 149 574q76 100 195 152.5t252 52.5q158 0 270 -62v-164q-143 80 -270 80q-68 0 -130.5 -23.5t-125 -82t-102 -179t-44.5 -290.5q127 150 326 149q197 0 319.5 -131t122.5 -358q0 -141 -43 -243.5t-116.5 -156t-152.5 -76t-169 -22.5q-113 0 -211 56.5 t-155 154.5q-115 196 -115 569zM283 502q0 -160 75.5 -276.5t204.5 -116.5q287 0 287 352q0 166 -80 268q-74 88 -168 88q-133 0 -226 -92t-93 -223z" />
<glyph unicode="7" d="M82 1311v174h962v-174q-154 -201 -331 -555q-172 -342 -244 -756h-197q66 362 293 815q100 199 324 496h-807z" />
<glyph unicode="8" d="M82 383q0 141 91 254t235 168q-266 141 -267 371q0 152 125 249t297 97t297 -97.5t125 -248.5q0 -111 -73.5 -195t-192.5 -129q147 -78 236 -200t89 -269q0 -180 -142 -300t-338.5 -120t-339 120t-142.5 300zM276 383q0 -125 83 -214t204 -89t204 89t83 214 q0 129 -96.5 225.5t-241.5 149.5q-109 -43 -172.5 -146.5t-63.5 -228.5zM315 1176q0 -170 299 -277q88 37 142.5 110.5t54.5 166.5q0 96 -73.5 162.5t-174 66.5t-174.5 -66.5t-74 -162.5z" />
<glyph unicode="9" d="M82 1024q0 141 43 243.5t116.5 156t152.5 76t169 22.5q113 0 211 -56.5t156 -154.5q115 -197 114 -568q0 -379 -149 -575q-76 -100 -194.5 -152.5t-251.5 -52.5q-158 0 -271 62v163q143 -80 271 -79q68 0 130 23.5t124.5 81.5t102.5 179t44 291q-127 -150 -326 -149 q-197 0 -319.5 131t-122.5 358zM276 1024q0 -166 80 -268q74 -88 168 -88q133 0 226.5 92t93.5 223q0 160 -76 276.5t-205 116.5q-287 0 -287 -352z" />
<glyph unicode=":" horiz-adv-x="522" d="M164 0v195h192v-195h-192zM164 891v194h192v-194h-192z" />
<glyph unicode=";" horiz-adv-x="522" d="M90 -291l74 357v129h192v-129l-145 -357h-121zM164 891v194h192v-194h-192z" />
<glyph unicode="&#x3c;" horiz-adv-x="1120" d="M82 573v62l958 461v-166l-663 -326l663 -325v-166z" />
<glyph unicode="=" horiz-adv-x="1177" d="M82 385v145h1012v-145h-1012zM82 678v145h1012v-145h-1012z" />
<glyph unicode="&#x3e;" horiz-adv-x="1120" d="M82 113v166l663 325l-663 326v166l958 -461v-62z" />
<glyph unicode="?" d="M119 1264v159q182 94 399 94.5t371.5 -96t154.5 -256.5q0 -86 -52 -156.5t-117.5 -112.5t-141.5 -102.5t-110 -117.5q-39 -66 -39 -180v-97h-195v97q0 127 53 217q35 59 109 114.5t137.5 91t112.5 95t49 131.5q0 109 -96.5 168t-235.5 59q-192 1 -399 -108zM389 0v195 h195v-195h-195z" />
<glyph unicode="@" horiz-adv-x="1505" d="M98 610q0 440 189.5 649t517.5 209q254 0 389 -120q61 -55 93 -141.5t36 -148t4 -177.5v-748h-162v107q-111 -106 -241 -107q-63 0 -119.5 25.5t-104 77t-76 142.5t-28.5 210q0 121 31.5 215t78 145t109 84t114.5 43t103 10q70 0 127 -22q-35 285 -360 285 q-258 0 -398.5 -184.5t-140.5 -555t138.5 -554t389.5 -183.5q80 0 181 23v-127q-68 -18 -162 -19q-330 0 -519.5 210t-189.5 652zM772 614q0 -172 62.5 -253.5t156.5 -81.5q100 0 174 81v549v32v34q-41 14 -84 14q-109 0 -196 -71q-113 -91 -113 -304z" />
<glyph unicode="A" horiz-adv-x="1347" d="M20 0l543 1485h205l559 -1485h-205l-155 414h-625l-152 -414h-170zM397 567h512l-260 688z" />
<glyph unicode="B" horiz-adv-x="1259" d="M164 0v1485h358q113 0 174.5 -3t147.5 -26.5t145 -69.5q135 -106 135 -272q0 -111 -81.5 -204t-247.5 -130q193 -43 287 -155.5t94 -247.5q0 -174 -134 -275q-63 -47 -157 -71.5t-162 -27.5t-191 -3h-368zM369 154h219q74 0 113.5 2t96 16t93.5 43q80 59 80 170 q0 131 -107 225q-49 43 -118.5 65.5t-117.5 26t-136 3.5h-123v-551zM369 858h137q78 0 120 2t101 20.5t102 53.5q90 70 91 178q0 98 -78 162q-33 27 -83 40t-85 15t-101 2h-204v-473z" />
<glyph unicode="C" horiz-adv-x="1290" d="M72 741q0 365 184 573t506 208q211 0 446 -88v-174q-283 109 -446 108q-201 0 -322 -125q-143 -150 -143 -502q0 -350 143 -499q121 -125 310 -125q76 0 162.5 26.5t144 54t151.5 78.5v-190q-217 -123 -454 -123q-311 0 -496.5 208t-185.5 570z" />
<glyph unicode="D" horiz-adv-x="1406" d="M164 0v1485h342q113 0 174 -4t154.5 -22.5t167 -65.5t139.5 -125q186 -215 186 -523q0 -309 -199 -528q-72 -78 -151.5 -125t-179 -65.5t-166 -22.5t-187.5 -4h-280zM369 154h147q82 0 127 3t113.5 17t123 51t103.5 97q139 174 139 426q0 246 -125 417q-57 78 -134 117 t-130 44t-153 5h-211v-1177z" />
<glyph unicode="E" horiz-adv-x="1224" d="M164 0v1485h979v-154h-774v-459h624v-153h-624v-565h798v-154h-1003z" />
<glyph unicode="F" horiz-adv-x="1191" d="M164 0v1485h946v-154h-741v-459h598v-153h-598v-719h-205z" />
<glyph unicode="G" horiz-adv-x="1345" d="M72 741q0 365 195.5 573t525.5 208q219 0 473 -90v-170q-303 106 -473 106q-215 0 -342 -125q-154 -152 -154 -502q0 -348 154 -499q127 -125 335 -125q119 0 275 45v391h-191v154h396v-648q-285 -96 -482 -96q-324 0 -518 209t-194 569z" />
<glyph unicode="H" horiz-adv-x="1454" d="M164 0v1485h205v-666h716v666h205v-1485h-205v666h-716v-666h-205z" />
<glyph unicode="I" horiz-adv-x="532" d="M164 0v1485h205v-1485h-205z" />
<glyph unicode="J" horiz-adv-x="933" d="M20 12v170q193 -66 283 -65q127 0 195 80q31 37 47 94t18 100t2 121v973h205v-930q0 -117 -4 -180.5t-30.5 -149.5t-80.5 -141q-115 -121 -338 -121q-150 0 -297 49z" />
<glyph unicode="K" horiz-adv-x="1259" d="M164 0v1485h205v-664l596 664h217l-627 -699l657 -786h-204l-559 668l-80 -90v-578h-205z" />
<glyph unicode="L" horiz-adv-x="1122" d="M164 0v1485h205v-1331h733v-154h-938z" />
<glyph unicode="M" horiz-adv-x="1701" d="M164 0v1485h293l403 -1135l383 1135h297v-1485h-205v1255l-389 -1151h-205l-407 1149v-1253h-170z" />
<glyph unicode="N" horiz-adv-x="1454" d="M164 0v1485h205l751 -1211v1211h170v-1485h-205l-751 1210v-1210h-170z" />
<glyph unicode="O" horiz-adv-x="1570" d="M72 743q0 358 195.5 568.5t519 210.5t519 -210t195.5 -569q0 -362 -195.5 -571t-519.5 -209q-326 0 -520 210t-194 570zM297 743q0 -348 156 -503q129 -123 333.5 -123t333.5 123q156 156 156 503q0 346 -156 502q-129 123 -333.5 123t-333.5 -123q-156 -156 -156 -502z " />
<glyph unicode="P" horiz-adv-x="1294" d="M164 0v1485h397q129 0 198.5 -4t167 -30t163.5 -77q143 -113 143 -311q0 -215 -152 -346q-68 -57 -163 -87t-162.5 -34t-192.5 -4h-194v-592h-205zM369 745h247q76 0 118 3.5t101.5 23t100.5 57.5q92 88 92 230q0 129 -88 203q-41 33 -100.5 49t-102.5 18t-123 2h-245 v-586z" />
<glyph unicode="Q" horiz-adv-x="1570" d="M72 743q0 358 195.5 568.5t518.5 210.5q324 0 519.5 -210t195.5 -569q0 -231 -87 -411t-251 -275q129 -221 328 -221v-153q-156 0 -284 95t-183 220q-113 -35 -238 -35q-326 0 -520 210t-194 570zM297 743q0 -348 156 -503q129 -123 333 -123q90 0 172 26 q-102 184 -270 228l39 149q127 -35 225.5 -124t139.5 -181q184 145 184 528q0 346 -156 502q-129 123 -333.5 123t-333.5 -123q-156 -156 -156 -502z" />
<glyph unicode="R" horiz-adv-x="1288" d="M164 0v1485h346q127 0 194.5 -4t162 -30t157.5 -79q139 -117 139 -321q0 -37 -4 -74t-25.5 -97.5t-58.5 -108.5t-111.5 -93t-175.5 -66l494 -612h-238l-479 592h-104h-92v-592h-205zM369 745h145q86 0 132 3.5t110.5 21.5t107.5 55q94 82 94 226q0 133 -84 209 q-39 33 -96 50t-98 19t-117 2h-194v-586z" />
<glyph unicode="S" horiz-adv-x="1232" d="M82 86v190q287 -160 522 -159q145 0 243.5 59.5t98.5 181.5q0 104 -82 173t-256 124l-92 31q-250 84 -342 169t-92 222q0 213 158.5 329t390.5 116q199 0 418 -88v-174q-272 109 -435 108q-137 0 -232 -56.5t-95 -176.5q0 -94 69.5 -139.5t272.5 -112.5l94 -29 q227 -74 327.5 -184.5t100.5 -261.5q0 -211 -163 -328t-410 -117q-275 0 -496 123z" />
<glyph unicode="T" horiz-adv-x="1202" d="M20 1331v154h1164v-154h-479v-1331h-205v1331h-480z" />
<glyph unicode="U" horiz-adv-x="1454" d="M164 567v918h205v-955q0 -80 3 -122.5t25.5 -102t65.5 -100.5q96 -88 264 -88q166 0 266 88q43 41 64.5 100.5t24.5 102.5t3 122v955h205v-918q0 -88 -3 -135t-15 -117.5t-44 -125t-83 -97.5q-150 -129 -418 -129t-418 127q-51 45 -82.5 98.5t-44 125t-15.5 118.5t-3 135 z" />
<glyph unicode="V" horiz-adv-x="1327" d="M20 1485h205l463 -1252l449 1252h170l-533 -1485h-205z" />
<glyph unicode="W" horiz-adv-x="1916" d="M20 1485h205l314 -1256l325 1256h205l358 -1254l299 1254h170l-354 -1485h-254l-334 1174l-305 -1174h-258z" />
<glyph unicode="X" horiz-adv-x="1327" d="M2 0l553 739l-539 746h234l422 -586l436 586h205l-539 -725l547 -760h-234l-432 600l-446 -600h-207z" />
<glyph unicode="Y" horiz-adv-x="1306" d="M20 1485h205l453 -748l438 748h170l-522 -891v-594h-205v594z" />
<glyph unicode="Z" horiz-adv-x="1255" d="M82 0v190l885 1141h-852v154h1061v-191l-885 -1140h885v-154h-1094z" />
<glyph unicode="[" horiz-adv-x="548" d="M82 -264v1818h446v-147h-252v-1524h252v-147h-446z" />
<glyph unicode="\" horiz-adv-x="569" d="M-2 1554h166l407 -1818h-165z" />
<glyph unicode="]" horiz-adv-x="548" d="M20 -117h252v1524h-252v147h447v-1818h-447v147z" />
<glyph unicode="^" horiz-adv-x="1054" d="M27 741l409 740h180l410 -740h-182l-318 576l-317 -576h-182z" />
<glyph unicode="_" horiz-adv-x="1024" d="M0 0h1024v-145h-1024v145z" />
<glyph unicode="`" horiz-adv-x="454" d="M80 1481v96l194 2v-98l74 -267l-121 -2z" />
<glyph unicode="a" horiz-adv-x="1069" d="M86 274q0 168 150 261q94 57 214.5 76.5t290.5 21.5v82q0 61 -5 96t-24.5 76t-68.5 59.5t-127 18.5q-168 0 -358 -80v149q174 76 385 76q82 0 145.5 -13.5t104.5 -33t69.5 -56t43 -66.5t21.5 -82t8 -85t1 -92v-682h-195v143q-170 -168 -356 -168q-135 0 -217 84t-82 215z M281 285q0 -74 47 -119t127 -45q141 0 286 158v237q-84 0 -135 -3t-116.5 -17.5t-110.5 -42.5q-98 -64 -98 -168z" />
<glyph unicode="b" horiz-adv-x="1110" d="M154 35v1542h194v-645q131 178 334 178q66 0 123 -21.5t111.5 -72.5t86 -151.5t31.5 -243.5q0 -123 -26.5 -228.5t-86 -204t-176 -156t-280.5 -57.5q-182 1 -311 60zM348 135q66 -14 125 -14q346 0 346 473q0 371 -207 371q-86 0 -156.5 -56.5t-107.5 -144.5v-629z" />
<glyph unicode="c" horiz-adv-x="1021" d="M86 542.5q0 272.5 139.5 420t388.5 147.5q150 0 324 -45v-154q-221 53 -322 54q-336 0 -335 -422q0 -201 81.5 -311.5t249.5 -110.5q104 0 326 65v-157q-180 -53 -326 -54q-248 0 -387 147.5t-139 420z" />
<glyph unicode="d" horiz-adv-x="1110" d="M76 510q0 139 34.5 246.5t90 173t132.5 107.5t152.5 57.5t159.5 15.5q59 0 117 -8v475h194v-1577h-194v133q-119 -158 -299 -158q-158 0 -272.5 130.5t-114.5 404.5zM291 524q0 -203 66.5 -303t172.5 -100q78 0 140.5 53t91.5 135v641q-61 14 -119 15q-352 -1 -352 -441z " />
<glyph unicode="e" horiz-adv-x="1093" d="M76 551q0 123 29.5 221t77.5 159.5t112.5 102.5t130.5 58.5t133 17.5q88 0 165 -28.5t142.5 -87t103.5 -162t38 -240.5q0 -35 -2 -72h-715q2 -223 91 -311t259 -88q160 0 342 53v-145q-182 -53 -350 -54q-258 0 -400 140q-157 149 -157 436zM301 666h508 q-12 145 -75.5 222t-164.5 77q-98 0 -170.5 -74.5t-97.5 -224.5z" />
<glyph unicode="f" horiz-adv-x="696" d="M49 940v145h146q2 135 17 224.5t53 159t105.5 101.5t172.5 32q84 0 174 -29v-150q-102 33 -152 33q-43 0 -73.5 -12t-49 -42t-30 -56.5t-16.5 -77.5t-6 -85t-1 -98h195v-145h-195v-940h-194v940h-146z" />
<glyph unicode="g" horiz-adv-x="1054" d="M76 719q0 66 23.5 129t71.5 124.5t137 99.5t208 38q133 0 232 -49q115 123 258 123v-148q-96 0 -166 -37q117 -113 116 -280q0 -72 -25.5 -139.5t-75.5 -126t-138 -93t-201 -34.5q-76 0 -141 18q-37 -35 -37 -76q0 -51 48 -74.5t153 -43.5l190 -37q47 -8 79 -16.5t76 -28 t71.5 -44t48 -65.5t20.5 -92q0 -264 -539 -264q-223 0 -399 47v170q252 -70 500 -70q246 0 245 103q0 12 -4 24t-12 21.5t-16 16.5t-22 13l-22 11q-9 4 -24.5 7t-22 5t-19.5 4l-13 2l-193 37q-47 8 -77.5 16t-77.5 26.5t-75 41t-50.5 61.5t-22.5 88q0 94 80 164 q-88 51 -136 140.5t-48 187.5zM291 719q0 -119 48 -182.5t177 -63.5q131 0 179 64.5t48 181.5t-50 181.5t-177 64.5q-133 0 -179 -68.5t-46 -177.5z" />
<glyph unicode="h" horiz-adv-x="1157" d="M154 0v1577h194v-664q166 197 385 197q57 0 101.5 -15.5t73 -37t48 -62.5t29.5 -69.5t14.5 -84t5.5 -83t1 -84.5v-674h-195v711q0 51 -2 81.5t-9 67.5t-23.5 56.5t-45.5 34t-72 14.5q-94 0 -173.5 -60.5t-137.5 -163.5v-741h-194z" />
<glyph unicode="i" horiz-adv-x="501" d="M154 0v1085h194v-1085h-194zM154 1290v195h194v-195h-194z" />
<glyph unicode="j" horiz-adv-x="501" d="M-154 -236q100 -39 156 -38q37 0 63.5 10t42 33.5t24.5 45t13.5 63.5t5.5 68.5t1 78.5v1060h194v-1003q0 -74 -1 -112t-7 -101.5t-17.5 -96t-34 -75.5t-55 -64.5t-84 -37t-116.5 -15.5q-90 0 -185 33v151zM152 1290v195h194v-195h-194z" />
<glyph unicode="k" horiz-adv-x="1007" d="M154 0v1577h194v-944l375 452h203l-402 -481l453 -604h-197l-370 465l-62 -74v-391h-194z" />
<glyph unicode="l" horiz-adv-x="501" d="M154 0v1577h194v-1577h-194z" />
<glyph unicode="m" horiz-adv-x="1699" d="M154 0v1085h194v-131q135 156 322 156q203 0 256 -184q139 184 342 184q59 0 105 -17.5t75 -39t49.5 -64.5t29.5 -72.5t14 -86t5 -79.5v-79v-672h-194v709q0 47 -1 72.5t-9.5 66.5t-22.5 62.5t-45 38t-74 16.5q-160 0 -254 -193q2 -33 2 -100v-672h-192v709q0 51 -1 77.5 t-10.5 64.5t-27.5 62q-39 51 -115 52q-160 0 -254 -193v-772h-194z" />
<glyph unicode="n" horiz-adv-x="1157" d="M154 0v1085h194v-172q166 197 385 197q57 0 101.5 -15.5t73 -37t48 -62.5t29.5 -69.5t14.5 -84t5.5 -83t1 -84.5v-674h-195v711q0 51 -2 81.5t-9 67.5t-23.5 56.5t-45.5 34t-72 14.5q-94 0 -173.5 -60.5t-137.5 -163.5v-741h-194z" />
<glyph unicode="o" horiz-adv-x="1144" d="M76 543q0 258 135 412.5t360 154.5q223 0 359.5 -154.5t136.5 -412.5t-135 -413t-361 -155q-223 0 -359 155t-136 413zM291 542.5q0 -245.5 94 -343.5q72 -78 186.5 -78t186.5 78q94 98 94 343.5t-94 344.5q-72 78 -186.5 78t-186.5 -78q-94 -99 -94 -344.5z" />
<glyph unicode="p" horiz-adv-x="1110" d="M154 -395v1480h194v-153q131 178 334 178q66 0 123 -21.5t111.5 -72.5t86 -151.5t31.5 -243.5q0 -96 -15 -182.5t-55 -173.5t-101.5 -149.5t-164 -101.5t-233.5 -39q-61 0 -117 7v-377h-194zM348 135q66 -14 125 -14q346 0 346 473q0 371 -207 371q-86 0 -156.5 -56.5 t-107.5 -144.5v-629z" />
<glyph unicode="q" horiz-adv-x="1110" d="M76 510q0 139 34.5 246.5t90 173t132.5 107.5t152.5 57.5t159.5 15.5q178 0 311 -59v-1446h-194v528q-119 -158 -299 -158q-158 0 -272.5 130.5t-114.5 404.5zM291 524q0 -203 66.5 -303t172.5 -100q78 0 140.5 53t91.5 135v641q-61 14 -119 15q-352 -1 -352 -441z" />
<glyph unicode="r" horiz-adv-x="839" d="M154 0v1085h194v-206q59 106 153.5 168.5t217.5 62.5q57 0 96 -8v-180q-68 14 -115 14q-123 0 -218 -74t-134 -190v-672h-194z" />
<glyph unicode="s" horiz-adv-x="993" d="M121 39v158q174 -76 356 -76q111 0 174.5 44t63.5 120q0 37 -14.5 64.5t-45 47t-55.5 29.5t-63 23l-156 51q-113 35 -186.5 113.5t-73.5 183.5q0 137 124 225t302 88q129 0 291 -45v-156q-197 55 -297 56q-96 0 -162 -35t-66 -101q0 -39 31 -69.5t60.5 -42.5t82.5 -31 l158 -51q264 -86 264 -309q0 -156 -123.5 -253.5t-328.5 -97.5q-195 1 -336 64z" />
<glyph unicode="t" horiz-adv-x="684" d="M49 940v145h146v246h194v-246h270v-145h-270v-586q0 -49 1 -75.5t8.5 -61.5t20.5 -52.5t38.5 -30.5t62.5 -13q53 0 139 16v-145q-102 -16 -182 -17q-68 0 -116 11.5t-78.5 40t-49 58.5t-26.5 85t-10 99t-2 122v549h-146z" />
<glyph unicode="u" horiz-adv-x="1157" d="M154 336v80v669h194v-706q0 -49 1 -77t9.5 -67.5t23.5 -60t46 -37t74 -16.5q94 0 173 60.5t136 160.5v743h195v-1085h-195v172q-166 -197 -379 -197q-59 0 -105 17.5t-75 39t-49.5 64.5t-29.5 73t-14 86t-5 81z" />
<glyph unicode="v" horiz-adv-x="1013" d="M20 1085h195l315 -860l299 860h162l-379 -1085h-194z" />
<glyph unicode="w" horiz-adv-x="1474" d="M20 1085h175l233 -868l242 868h174l233 -868l215 868h162l-270 -1085h-223l-211 791l-222 -791h-215z" />
<glyph unicode="x" horiz-adv-x="1013" d="M6 0l391 563l-368 522h194l295 -415l289 415h190l-385 -550l379 -535h-194l-303 428l-297 -428h-191z" />
<glyph unicode="y" horiz-adv-x="1013" d="M20 1085h195l315 -856l299 856h162l-518 -1480h-162l121 344z" />
<glyph unicode="z" horiz-adv-x="1021" d="M86 0v164l639 776h-614v145h827v-163l-639 -777h639v-145h-852z" />
<glyph unicode="{" horiz-adv-x="587" d="M20 571v148q51 0 93.5 28.5t64.5 77.5v406q0 133 96.5 228t233.5 95h61v-147h-61q-72 0 -121 -51t-49 -125v-418q0 -37 -33 -86t-74 -82q41 -31 74 -81t33 -87v-418q0 -74 49 -125t121 -51h61v-147h-61q-137 0 -233.5 95t-96.5 228v406q-23 49 -65 77.5t-93 28.5z" />
<glyph unicode="|" horiz-adv-x="487" d="M164 -264v1818h160v-1818h-160z" />
<glyph unicode="}" horiz-adv-x="587" d="M20 -117h62q72 0 121 51.5t49 124.5v418q0 37 32.5 86t73.5 82q-41 31 -73.5 81t-32.5 87v418q0 74 -49 125t-121 51h-62v147h62q137 0 233.5 -95t96.5 -228v-406q23 -49 64.5 -77.5t92.5 -28.5v-148q-51 0 -93 -28.5t-64 -77.5v-406q0 -133 -96.5 -228t-233.5 -95h-62 v147z" />
<glyph unicode="~" horiz-adv-x="1177" d="M82 459q0 135 83 231t202 96q66 0 130 -33.5t107 -75.5t95.5 -76t97.5 -34q102 0 102 183h195q0 -135 -83 -231.5t-202 -96.5q-66 0 -130.5 33.5t-107.5 75.5t-95 76t-97 34q-102 0 -103 -182h-194z" />
<glyph unicode="&#xa8;" horiz-adv-x="1454" d="M436 1290v195h195v-195h-195zM823 1290v195h195v-195h-195z" />
<glyph unicode="&#xaa;" horiz-adv-x="1069" d="M86 274q0 168 150 261q94 57 214.5 76.5t290.5 21.5v82q0 61 -5 96t-24.5 76t-68.5 59.5t-127 18.5q-168 0 -358 -80v149q174 76 385 76q82 0 145.5 -13.5t104.5 -33t69.5 -56t43 -66.5t21.5 -82t8 -85t1 -92v-682h-195v143q-170 -168 -356 -168q-135 0 -217 84t-82 215z M281 285q0 -74 47 -119t127 -45q141 0 286 158v237q-84 0 -135 -3t-116.5 -17.5t-110.5 -42.5q-98 -64 -98 -168z" />
<glyph unicode="&#xad;" horiz-adv-x="614" d="M82 530v148h450v-148h-450z" />
<glyph unicode="&#xaf;" horiz-adv-x="1454" d="M436 1290v146h582v-146h-582z" />
<glyph unicode="&#xb2;" d="M82 0v160q33 100 100.5 194.5t142.5 160.5l154 140l144 137q63 62 104 144t41 168q0 113 -81 192.5t-195 79.5q-184 0 -373 -104v162q160 88 373 88q193 0 332 -120t139 -298q0 -78 -32 -154t-98.5 -151.5t-117.5 -123.5t-142 -126q-236 -205 -299 -404h689v-145h-881z " />
<glyph unicode="&#xb3;" d="M164 25v168q203 -84 368 -84q123 0 198 85t75 226q0 129 -84 196q-125 96 -287 97h-100v145h100q135 0 234.5 76t99.5 194q0 102 -53 175t-183 73q-150 0 -331 -73v165q135 53 331 54q201 0 316 -108.5t115 -285.5q0 -119 -80 -204.5t-213 -128.5q88 -14 152.5 -52 t97 -81.5t52 -95.5t23.5 -84.5t4 -61.5q0 -207 -131 -332t-336 -125q-216 1 -368 62z" />
<glyph unicode="&#xb4;" horiz-adv-x="552" d="M121 1231l155 328h195l-233 -328h-117z" />
<glyph unicode="&#xb9;" d="M217 0v145h313v1172l-313 -123v145l352 154h156v-1348h287v-145h-795z" />
<glyph unicode="&#xba;" horiz-adv-x="1144" d="M76 543q0 258 135 412.5t360 154.5q223 0 359.5 -154.5t136.5 -412.5t-135 -413t-361 -155q-223 0 -359 155t-136 413zM291 542.5q0 -245.5 94 -343.5q72 -78 186.5 -78t186.5 78q94 98 94 343.5t-94 344.5q-72 78 -186.5 78t-186.5 -78q-94 -99 -94 -344.5z" />
<glyph unicode="&#xc0;" horiz-adv-x="1347" d="M20 0l543 1485h205l559 -1485h-205l-155 414h-625l-152 -414h-170zM397 567h512l-260 688zM414 1958h194l156 -328h-117z" />
<glyph unicode="&#xc1;" horiz-adv-x="1347" d="M20 0l543 1485h205l559 -1485h-205l-155 414h-625l-152 -414h-170zM397 567h512l-260 688zM530 1630l156 328h195l-234 -328h-117z" />
<glyph unicode="&#xc2;" horiz-adv-x="1347" d="M20 0l543 1485h205l559 -1485h-205l-155 414h-625l-152 -414h-170zM326 1630l225 291h192l226 -291h-156l-166 185l-166 -185h-155zM397 567h512l-260 688z" />
<glyph unicode="&#xc3;" horiz-adv-x="1347" d="M160 1682q0 135 83 231t202 96q66 0 130 -33.5t107 -75.5t95.5 -76t97.5 -34q102 0 102 183h195q0 -135 -83 -231.5t-202 -96.5q-66 0 -130.5 33.5t-107.5 75.5t-95 76t-97 34q-102 0 -103 -182h-194zM20 0l543 1485h205l559 -1485h-205l-155 414h-625l-152 -414h-170z M397 567h512l-260 688z" />
<glyph unicode="&#xc4;" horiz-adv-x="1347" d="M20 0l543 1485h205l559 -1485h-205l-155 414h-625l-152 -414h-170zM356 1690v194h195v-194h-195zM397 567h512l-260 688zM743 1690v194h195v-194h-195z" />
<glyph unicode="&#xc5;" horiz-adv-x="1347" d="M20 0l543 1485h205l559 -1485h-205l-155 414h-625l-152 -414h-170zM397 567h512l-260 688zM414 1831q0 90 68.5 151.5t164.5 61.5t165 -61.5t69 -151.5t-70 -151.5t-164 -61.5t-163.5 61.5t-69.5 151.5zM530 1831q0 -47 35 -81t82 -34t82 34t35 81q0 49 -35 83t-82 34 t-82 -34t-35 -83z" />
<glyph unicode="&#xc8;" horiz-adv-x="1224" d="M164 0v1485h979v-154h-774v-459h624v-153h-624v-565h798v-154h-1003zM420 1958h194l156 -328h-117z" />
<glyph unicode="&#xc9;" horiz-adv-x="1224" d="M164 0v1485h979v-154h-774v-459h624v-153h-624v-565h798v-154h-1003zM537 1630l155 328h195l-234 -328h-116z" />
<glyph unicode="&#xca;" horiz-adv-x="1224" d="M164 0v1485h979v-154h-774v-459h624v-153h-624v-565h798v-154h-1003zM332 1630l225 291h193l225 -291h-156l-166 185l-166 -185h-155z" />
<glyph unicode="&#xcb;" horiz-adv-x="1224" d="M164 0v1485h979v-154h-774v-459h624v-153h-624v-565h798v-154h-1003zM362 1690v194h195v-194h-195zM750 1690v194h194v-194h-194z" />
<glyph unicode="&#xcc;" horiz-adv-x="532" d="M33 1958h194l156 -328h-117zM164 0v1485h205v-1485h-205z" />
<glyph unicode="&#xcd;" horiz-adv-x="532" d="M150 1630l155 328h195l-234 -328h-116zM164 0v1485h205v-1485h-205z" />
<glyph unicode="&#xce;" horiz-adv-x="532" d="M-55 1630l225 291h192l226 -291h-156l-166 185l-166 -185h-155zM164 0v1485h205v-1485h-205z" />
<glyph unicode="&#xcf;" horiz-adv-x="532" d="M-25 1690v194h195v-194h-195zM164 0v1485h205v-1485h-205zM362 1690v194h195v-194h-195z" />
<glyph unicode="&#xd0;" horiz-adv-x="1406" d="M16 666v153h148v666h342q113 0 174 -4t154.5 -22.5t167 -65.5t139.5 -125q186 -215 186 -523q0 -309 -199 -528q-72 -78 -151.5 -125t-179 -65.5t-166 -22.5t-187.5 -4h-280v666h-148zM369 154h147q82 0 127 3t113.5 17t123 51t103.5 97q139 174 139 426q0 246 -125 417 q-57 78 -134 117t-130 44t-153 5h-211v-512h340v-153h-340v-512z" />
<glyph unicode="&#xd1;" horiz-adv-x="1454" d="M221 1682q0 135 83 231t202 96q66 0 130 -33.5t107 -75.5t95.5 -76t97.5 -34q102 0 102 183h195q0 -135 -83 -231.5t-202 -96.5q-66 0 -130.5 33.5t-107.5 75.5t-95 76t-97 34q-102 0 -103 -182h-194zM164 0v1485h205l751 -1211v1211h170v-1485h-205l-751 1210v-1210 h-170z" />
<glyph unicode="&#xd2;" horiz-adv-x="1570" d="M72 743q0 358 195.5 568.5t519 210.5t519 -210t195.5 -569q0 -362 -195.5 -571t-519.5 -209q-326 0 -520 210t-194 570zM297 743q0 -348 156 -503q129 -123 333.5 -123t333.5 123q156 156 156 503q0 346 -156 502q-129 123 -333.5 123t-333.5 -123q-156 -156 -156 -502z M553 1958h195l155 -328h-117z" />
<glyph unicode="&#xd3;" horiz-adv-x="1570" d="M72 743q0 358 195.5 568.5t519 210.5t519 -210t195.5 -569q0 -362 -195.5 -571t-519.5 -209q-326 0 -520 210t-194 570zM297 743q0 -348 156 -503q129 -123 333.5 -123t333.5 123q156 156 156 503q0 346 -156 502q-129 123 -333.5 123t-333.5 -123q-156 -156 -156 -502z M670 1630l155 328h195l-234 -328h-116z" />
<glyph unicode="&#xd4;" horiz-adv-x="1570" d="M72 743q0 358 195.5 568.5t519 210.5t519 -210t195.5 -569q0 -362 -195.5 -571t-519.5 -209q-326 0 -520 210t-194 570zM297 743q0 -348 156 -503q129 -123 333.5 -123t333.5 123q156 156 156 503q0 346 -156 502q-129 123 -333.5 123t-333.5 -123q-156 -156 -156 -502z M465 1630l225 291h193l225 -291h-156l-166 185l-165 -185h-156z" />
<glyph unicode="&#xd5;" horiz-adv-x="1570" d="M281 1682q0 135 83 231t202 96q66 0 130 -33.5t107 -75.5t95.5 -76t97.5 -34q102 0 102 183h195q0 -135 -83 -231.5t-202 -96.5q-66 0 -130.5 33.5t-107.5 75.5t-95 76t-97 34q-102 0 -103 -182h-194zM72 743q0 358 195.5 568.5t519 210.5t519 -210t195.5 -569 q0 -362 -195.5 -571t-519.5 -209q-326 0 -520 210t-194 570zM297 743q0 -348 156 -503q129 -123 333.5 -123t333.5 123q156 156 156 503q0 346 -156 502q-129 123 -333.5 123t-333.5 -123q-156 -156 -156 -502z" />
<glyph unicode="&#xd6;" horiz-adv-x="1570" d="M72 743q0 358 195.5 568.5t519 210.5t519 -210t195.5 -569q0 -362 -195.5 -571t-519.5 -209q-326 0 -520 210t-194 570zM297 743q0 -348 156 -503q129 -123 333.5 -123t333.5 123q156 156 156 503q0 346 -156 502q-129 123 -333.5 123t-333.5 -123q-156 -156 -156 -502z M496 1690v194h194v-194h-194zM883 1690v194h194v-194h-194z" />
<glyph unicode="&#xd9;" horiz-adv-x="1454" d="M164 567v918h205v-955q0 -80 3 -122.5t25.5 -102t65.5 -100.5q96 -88 264 -88q166 0 266 88q43 41 64.5 100.5t24.5 102.5t3 122v955h205v-918q0 -88 -3 -135t-15 -117.5t-44 -125t-83 -97.5q-150 -129 -418 -129t-418 127q-51 45 -82.5 98.5t-44 125t-15.5 118.5t-3 135 zM494 1958h194l156 -328h-117z" />
<glyph unicode="&#xda;" horiz-adv-x="1454" d="M164 567v918h205v-955q0 -80 3 -122.5t25.5 -102t65.5 -100.5q96 -88 264 -88q166 0 266 88q43 41 64.5 100.5t24.5 102.5t3 122v955h205v-918q0 -88 -3 -135t-15 -117.5t-44 -125t-83 -97.5q-150 -129 -418 -129t-418 127q-51 45 -82.5 98.5t-44 125t-15.5 118.5t-3 135 zM610 1630l156 328h195l-234 -328h-117z" />
<glyph unicode="&#xdb;" horiz-adv-x="1454" d="M164 567v918h205v-955q0 -80 3 -122.5t25.5 -102t65.5 -100.5q96 -88 264 -88q166 0 266 88q43 41 64.5 100.5t24.5 102.5t3 122v955h205v-918q0 -88 -3 -135t-15 -117.5t-44 -125t-83 -97.5q-150 -129 -418 -129t-418 127q-51 45 -82.5 98.5t-44 125t-15.5 118.5t-3 135 zM406 1630l225 291h192l226 -291h-156l-166 185l-166 -185h-155z" />
<glyph unicode="&#xdc;" horiz-adv-x="1454" d="M164 567v918h205v-955q0 -80 3 -122.5t25.5 -102t65.5 -100.5q96 -88 264 -88q166 0 266 88q43 41 64.5 100.5t24.5 102.5t3 122v955h205v-918q0 -88 -3 -135t-15 -117.5t-44 -125t-83 -97.5q-150 -129 -418 -129t-418 127q-51 45 -82.5 98.5t-44 125t-15.5 118.5t-3 135 zM436 1690v194h195v-194h-195zM823 1690v194h195v-194h-195z" />
<glyph unicode="&#xdd;" horiz-adv-x="1306" d="M20 1485h205l453 -748l438 748h170l-522 -891v-594h-205v594zM537 1630l155 328h195l-234 -328h-116z" />
<glyph unicode="&#xde;" horiz-adv-x="1294" d="M164 0v1485h205v-283h192q98 0 150.5 -2t130.5 -11t138 -34t110 -63q143 -115 143 -312q0 -215 -152 -346q-68 -57 -163 -87t-162.5 -34t-192.5 -4h-194v-309h-205zM369 463h329q172 0 251 96t79 217q0 117 -78 195t-252 78h-329v-586z" />
<glyph unicode="&#xdf;" horiz-adv-x="1263" d="M154 0v1126q0 94 4 144.5t31.5 120t82.5 112.5q119 98 318 99q180 0 304 -88.5t124 -227.5q0 -66 -31 -128t-74 -108l-86 -89q-43 -43 -73.5 -85t-30.5 -81q0 -74 147 -146l74 -35q115 -53 175.5 -117.5t60.5 -174.5q0 -150 -112 -248.5t-294 -98.5q-174 0 -289 60v166 q158 -80 306 -80q90 0 142 43t52 102q0 33 -15.5 59.5t-48 49t-55 35t-65.5 32.5l-76 35q-88 41 -142.5 120t-54.5 171q0 70 31 131.5t74 107.5l86 89q43 43 73.5 90t30.5 96q0 76 -63.5 125t-159.5 49q-111 0 -182 -61q-33 -29 -49.5 -71t-18.5 -72.5t-2 -88.5v-1163h-194z " />
<glyph unicode="&#xe0;" horiz-adv-x="1069" d="M86 274q0 168 150 261q94 57 214.5 76.5t290.5 21.5v82q0 61 -5 96t-24.5 76t-68.5 59.5t-127 18.5q-168 0 -358 -80v149q174 76 385 76q82 0 145.5 -13.5t104.5 -33t69.5 -56t43 -66.5t21.5 -82t8 -85t1 -92v-682h-195v143q-170 -168 -356 -168q-135 0 -217 84t-82 215z M281 285q0 -74 47 -119t127 -45q141 0 286 158v237q-84 0 -135 -3t-116.5 -17.5t-110.5 -42.5q-98 -64 -98 -168zM299 1559h195l155 -328h-117z" />
<glyph unicode="&#xe1;" horiz-adv-x="1069" d="M86 274q0 168 150 261q94 57 214.5 76.5t290.5 21.5v82q0 61 -5 96t-24.5 76t-68.5 59.5t-127 18.5q-168 0 -358 -80v149q174 76 385 76q82 0 145.5 -13.5t104.5 -33t69.5 -56t43 -66.5t21.5 -82t8 -85t1 -92v-682h-195v143q-170 -168 -356 -168q-135 0 -217 84t-82 215z M281 285q0 -74 47 -119t127 -45q141 0 286 158v237q-84 0 -135 -3t-116.5 -17.5t-110.5 -42.5q-98 -64 -98 -168zM416 1231l155 328h195l-234 -328h-116z" />
<glyph unicode="&#xe2;" horiz-adv-x="1069" d="M86 274q0 168 150 261q94 57 214.5 76.5t290.5 21.5v82q0 61 -5 96t-24.5 76t-68.5 59.5t-127 18.5q-168 0 -358 -80v149q174 76 385 76q82 0 145.5 -13.5t104.5 -33t69.5 -56t43 -66.5t21.5 -82t8 -85t1 -92v-682h-195v143q-170 -168 -356 -168q-135 0 -217 84t-82 215z M211 1231l225 291h193l225 -291h-156l-166 184l-165 -184h-156zM281 285q0 -74 47 -119t127 -45q141 0 286 158v237q-84 0 -135 -3t-116.5 -17.5t-110.5 -42.5q-98 -64 -98 -168z" />
<glyph unicode="&#xe3;" horiz-adv-x="1069" d="M37 1270q0 135 83 231t202 96q66 0 130 -33.5t107 -75.5t95.5 -76t97.5 -34q102 0 102 183h195q0 -135 -83 -231.5t-202 -96.5q-66 0 -130.5 33.5t-107.5 75.5t-95 76t-97 34q-102 0 -103 -182h-194zM86 274q0 168 150 261q94 57 214.5 76.5t290.5 21.5v82q0 61 -5 96 t-24.5 76t-68.5 59.5t-127 18.5q-168 0 -358 -80v149q174 76 385 76q82 0 145.5 -13.5t104.5 -33t69.5 -56t43 -66.5t21.5 -82t8 -85t1 -92v-682h-195v143q-170 -168 -356 -168q-135 0 -217 84t-82 215zM281 285q0 -74 47 -119t127 -45q141 0 286 158v237q-84 0 -135 -3 t-116.5 -17.5t-110.5 -42.5q-98 -64 -98 -168z" />
<glyph unicode="&#xe4;" horiz-adv-x="1069" d="M86 274q0 168 150 261q94 57 214.5 76.5t290.5 21.5v82q0 61 -5 96t-24.5 76t-68.5 59.5t-127 18.5q-168 0 -358 -80v149q174 76 385 76q82 0 145.5 -13.5t104.5 -33t69.5 -56t43 -66.5t21.5 -82t8 -85t1 -92v-682h-195v143q-170 -168 -356 -168q-135 0 -217 84t-82 215z M242 1290v195h194v-195h-194zM281 285q0 -74 47 -119t127 -45q141 0 286 158v237q-84 0 -135 -3t-116.5 -17.5t-110.5 -42.5q-98 -64 -98 -168zM629 1290v195h194v-195h-194z" />
<glyph unicode="&#xe5;" horiz-adv-x="1069" d="M86 274q0 168 150 261q94 57 214.5 76.5t290.5 21.5v82q0 61 -5 96t-24.5 76t-68.5 59.5t-127 18.5q-168 0 -358 -80v149q174 76 385 76q82 0 145.5 -13.5t104.5 -33t69.5 -56t43 -66.5t21.5 -82t8 -85t1 -92v-682h-195v143q-170 -168 -356 -168q-135 0 -217 84t-82 215z M281 285q0 -74 47 -119t127 -45q141 0 286 158v237q-84 0 -135 -3t-116.5 -17.5t-110.5 -42.5q-98 -64 -98 -168zM299 1431.5q0 90.5 68.5 152t165 61.5t165 -61.5t68.5 -152t-69.5 -151.5t-164 -61t-164 61t-69.5 151.5zM416 1432q0 -47 34.5 -81t82 -34t82 33.5t34.5 81.5 q0 49 -34.5 82.5t-82 33.5t-82 -33.5t-34.5 -82.5z" />
<glyph unicode="&#xe8;" horiz-adv-x="1093" d="M76 551q0 123 29.5 221t77.5 159.5t112.5 102.5t130.5 58.5t133 17.5q88 0 165 -28.5t142.5 -87t103.5 -162t38 -240.5q0 -35 -2 -72h-715q2 -223 91 -311t259 -88q160 0 342 53v-145q-182 -53 -350 -54q-258 0 -400 140q-157 149 -157 436zM301 666h508 q-12 145 -75.5 222t-164.5 77q-98 0 -170.5 -74.5t-97.5 -224.5zM350 1559h195l155 -328h-116z" />
<glyph unicode="&#xe9;" horiz-adv-x="1093" d="M76 551q0 123 29.5 221t77.5 159.5t112.5 102.5t130.5 58.5t133 17.5q88 0 165 -28.5t142.5 -87t103.5 -162t38 -240.5q0 -35 -2 -72h-715q2 -223 91 -311t259 -88q160 0 342 53v-145q-182 -53 -350 -54q-258 0 -400 140q-157 149 -157 436zM301 666h508 q-12 145 -75.5 222t-164.5 77q-98 0 -170.5 -74.5t-97.5 -224.5zM467 1231l156 328h194l-233 -328h-117z" />
<glyph unicode="&#xea;" horiz-adv-x="1093" d="M76 551q0 123 29.5 221t77.5 159.5t112.5 102.5t130.5 58.5t133 17.5q88 0 165 -28.5t142.5 -87t103.5 -162t38 -240.5q0 -35 -2 -72h-715q2 -223 91 -311t259 -88q160 0 342 53v-145q-182 -53 -350 -54q-258 0 -400 140q-157 149 -157 436zM262 1231l225 291h193 l225 -291h-155l-166 184l-166 -184h-156zM301 666h508q-12 145 -75.5 222t-164.5 77q-98 0 -170.5 -74.5t-97.5 -224.5z" />
<glyph unicode="&#xeb;" horiz-adv-x="1093" d="M76 551q0 123 29.5 221t77.5 159.5t112.5 102.5t130.5 58.5t133 17.5q88 0 165 -28.5t142.5 -87t103.5 -162t38 -240.5q0 -35 -2 -72h-715q2 -223 91 -311t259 -88q160 0 342 53v-145q-182 -53 -350 -54q-258 0 -400 140q-157 149 -157 436zM293 1290v195h194v-195h-194z M301 666h508q-12 145 -75.5 222t-164.5 77q-98 0 -170.5 -74.5t-97.5 -224.5zM680 1290v195h194v-195h-194z" />
<glyph unicode="&#xec;" horiz-adv-x="501" d="M18 1559h195l156 -328h-117zM154 0v1085h194v-1085h-194z" />
<glyph unicode="&#xed;" horiz-adv-x="501" d="M133 1231l156 328h194l-233 -328h-117zM154 0v1085h194v-1085h-194z" />
<glyph unicode="&#xee;" horiz-adv-x="501" d="M-72 1231l226 291h192l225 -291h-155l-166 184l-166 -184h-156zM154 0v1085h194v-1085h-194z" />
<glyph unicode="&#xef;" horiz-adv-x="501" d="M-41 1290v195h195v-195h-195zM154 0v1085h194v-1085h-194zM346 1290v195h195v-195h-195z" />
<glyph unicode="&#xf0;" horiz-adv-x="1144" d="M86 537q0 127 28.5 226t75 160.5t109.5 101.5t126.5 55.5t131.5 15.5q94 0 162 -33q-68 115 -164 207l-262 -94l-31 86l213 77q-111 86 -244 140l136 80q150 -59 274 -160l264 96l33 -86l-219 -80q160 -154 249 -358.5t89 -431.5q0 -156 -42 -270.5t-115 -176 t-153.5 -89.5t-175 -28t-175.5 28t-153.5 89.5t-114.5 175t-42 269.5zM281 549q0 -217 80.5 -322.5t209.5 -105.5q127 0 209 104.5t82 317.5q0 436 -278 436q-137 0 -220 -106.5t-83 -323.5z" />
<glyph unicode="&#xf1;" horiz-adv-x="1157" d="M74 1270q0 135 83 231t202 96q66 0 130 -33.5t107 -75.5t95.5 -76t97.5 -34q102 0 102 183h195q0 -135 -83 -231.5t-202 -96.5q-66 0 -130.5 33.5t-107.5 75.5t-95 76t-97 34q-102 0 -103 -182h-194zM154 0v1085h194v-172q166 197 385 197q57 0 101.5 -15.5t73 -37 t48 -62.5t29.5 -69.5t14.5 -84t5.5 -83t1 -84.5v-674h-195v711q0 51 -2 81.5t-9 67.5t-23.5 56.5t-45.5 34t-72 14.5q-94 0 -173.5 -60.5t-137.5 -163.5v-741h-194z" />
<glyph unicode="&#xf2;" horiz-adv-x="1144" d="M76 543q0 258 135 412.5t360 154.5q223 0 359.5 -154.5t136.5 -412.5t-135 -413t-361 -155q-223 0 -359 155t-136 413zM291 542.5q0 -245.5 94 -343.5q72 -78 186.5 -78t186.5 78q94 98 94 343.5t-94 344.5q-72 78 -186.5 78t-186.5 -78q-94 -99 -94 -344.5zM338 1559 h194l156 -328h-117z" />
<glyph unicode="&#xf3;" horiz-adv-x="1144" d="M76 543q0 258 135 412.5t360 154.5q223 0 359.5 -154.5t136.5 -412.5t-135 -413t-361 -155q-223 0 -359 155t-136 413zM291 542.5q0 -245.5 94 -343.5q72 -78 186.5 -78t186.5 78q94 98 94 343.5t-94 344.5q-72 78 -186.5 78t-186.5 -78q-94 -99 -94 -344.5zM455 1231 l155 328h195l-234 -328h-116z" />
<glyph unicode="&#xf4;" horiz-adv-x="1144" d="M76 543q0 258 135 412.5t360 154.5q223 0 359.5 -154.5t136.5 -412.5t-135 -413t-361 -155q-223 0 -359 155t-136 413zM250 1231l225 291h193l225 -291h-156l-166 184l-165 -184h-156zM291 542.5q0 -245.5 94 -343.5q72 -78 186.5 -78t186.5 78q94 98 94 343.5t-94 344.5 q-72 78 -186.5 78t-186.5 -78q-94 -99 -94 -344.5z" />
<glyph unicode="&#xf5;" horiz-adv-x="1144" d="M66 1270q0 135 83 231t202 96q66 0 130 -33.5t107 -75.5t95.5 -76t97.5 -34q102 0 102 183h195q0 -135 -83 -231.5t-202 -96.5q-66 0 -130.5 33.5t-107.5 75.5t-95 76t-97 34q-102 0 -103 -182h-194zM76 543q0 258 135 412.5t360 154.5q223 0 359.5 -154.5t136.5 -412.5 t-135 -413t-361 -155q-223 0 -359 155t-136 413zM291 542.5q0 -245.5 94 -343.5q72 -78 186.5 -78t186.5 78q94 98 94 343.5t-94 344.5q-72 78 -186.5 78t-186.5 -78q-94 -99 -94 -344.5z" />
<glyph unicode="&#xf6;" horiz-adv-x="1144" d="M76 543q0 258 135 412.5t360 154.5q223 0 359.5 -154.5t136.5 -412.5t-135 -413t-361 -155q-223 0 -359 155t-136 413zM281 1290v195h194v-195h-194zM291 542.5q0 -245.5 94 -343.5q72 -78 186.5 -78t186.5 78q94 98 94 343.5t-94 344.5q-72 78 -186.5 78t-186.5 -78 q-94 -99 -94 -344.5zM668 1290v195h194v-195h-194z" />
<glyph unicode="&#xf9;" horiz-adv-x="1157" d="M154 336v80v669h194v-706q0 -49 1 -77t9.5 -67.5t23.5 -60t46 -37t74 -16.5q94 0 173 60.5t136 160.5v743h195v-1085h-195v172q-166 -197 -379 -197q-59 0 -105 17.5t-75 39t-49.5 64.5t-29.5 73t-14 86t-5 81zM346 1559h195l155 -328h-116z" />
<glyph unicode="&#xfa;" horiz-adv-x="1157" d="M154 336v80v669h194v-706q0 -49 1 -77t9.5 -67.5t23.5 -60t46 -37t74 -16.5q94 0 173 60.5t136 160.5v743h195v-1085h-195v172q-166 -197 -379 -197q-59 0 -105 17.5t-75 39t-49.5 64.5t-29.5 73t-14 86t-5 81zM463 1231l155 328h195l-233 -328h-117z" />
<glyph unicode="&#xfb;" horiz-adv-x="1157" d="M154 336v80v669h194v-706q0 -49 1 -77t9.5 -67.5t23.5 -60t46 -37t74 -16.5q94 0 173 60.5t136 160.5v743h195v-1085h-195v172q-166 -197 -379 -197q-59 0 -105 17.5t-75 39t-49.5 64.5t-29.5 73t-14 86t-5 81zM258 1231l225 291h193l225 -291h-156l-165 184l-166 -184 h-156z" />
<glyph unicode="&#xfc;" horiz-adv-x="1157" d="M154 336v80v669h194v-706q0 -49 1 -77t9.5 -67.5t23.5 -60t46 -37t74 -16.5q94 0 173 60.5t136 160.5v743h195v-1085h-195v172q-166 -197 -379 -197q-59 0 -105 17.5t-75 39t-49.5 64.5t-29.5 73t-14 86t-5 81zM289 1290v195h194v-195h-194zM676 1290v195h194v-195h-194z " />
<glyph unicode="&#xfd;" horiz-adv-x="1013" d="M20 1085h195l315 -856l299 856h162l-518 -1480h-162l121 344zM389 1231l156 328h194l-233 -328h-117z" />
<glyph unicode="&#xfe;" horiz-adv-x="1110" d="M154 -395v1972h194v-645q131 178 334 178q66 0 123 -21.5t111.5 -72.5t86 -151.5t31.5 -243.5q0 -96 -15 -182.5t-55 -173.5t-101.5 -149.5t-164 -101.5t-233.5 -39q-61 0 -117 7v-377h-194zM348 135q66 -14 125 -14q346 0 346 473q0 371 -207 371q-86 0 -156.5 -56.5 t-107.5 -144.5v-629z" />
<glyph unicode="&#xff;" horiz-adv-x="1013" d="M20 1085h195l315 -856l299 856h162l-518 -1480h-162l121 344zM215 1290v195h195v-195h-195zM602 1290v195h195v-195h-195z" />
<glyph unicode="&#x152;" horiz-adv-x="2795" d="M1735 0v1485h979v-154h-774v-459h624v-153h-624v-565h798v-154h-1003zM72 743q0 358 195.5 568.5t519 210.5t519 -210t195.5 -569q0 -362 -195.5 -571t-519.5 -209q-326 0 -520 210t-194 570zM297 743q0 -348 156 -503q129 -123 333.5 -123t333.5 123q156 156 156 503 q0 346 -156 502q-129 123 -333.5 123t-333.5 -123q-156 -156 -156 -502z" />
<glyph unicode="&#x153;" horiz-adv-x="2238" d="M1221 551q0 123 29.5 221t77.5 159.5t112.5 102.5t130.5 58.5t133 17.5q88 0 165 -28.5t142.5 -87t103.5 -162t38 -240.5q0 -35 -2 -72h-715q2 -223 91 -311t259 -88q160 0 342 53v-145q-182 -53 -350 -54q-258 0 -400 140q-157 149 -157 436zM1446 666h508 q-12 145 -75.5 222t-164.5 77q-98 0 -170.5 -74.5t-97.5 -224.5zM76 543q0 258 135 412.5t360 154.5q223 0 359.5 -154.5t136.5 -412.5t-135 -413t-361 -155q-223 0 -359 155t-136 413zM291 542.5q0 -245.5 94 -343.5q72 -78 186.5 -78t186.5 78q94 98 94 343.5t-94 344.5 q-72 78 -186.5 78t-186.5 -78q-94 -99 -94 -344.5z" />
<glyph unicode="&#x178;" horiz-adv-x="1306" d="M20 1485h205l453 -748l438 748h170l-522 -891v-594h-205v594zM362 1690v194h195v-194h-195zM750 1690v194h194v-194h-194z" />
<glyph unicode="&#x2c6;" horiz-adv-x="1454" d="M406 1231l225 291h192l226 -291h-156l-166 184l-166 -184h-155z" />
<glyph unicode="&#x2dc;" horiz-adv-x="512" d="M-506 160q0 135 83 231t202 96q66 0 130 -33.5t107 -75.5t95.5 -76t97.5 -34q102 0 102 183h195q0 -135 -83 -231.5t-202 -96.5q-66 0 -130.5 33.5t-107.5 75.5t-95 76t-97 34q-102 0 -103 -182h-194z" />
<glyph unicode="&#x2000;" horiz-adv-x="1021" />
<glyph unicode="&#x2001;" horiz-adv-x="2043" />
<glyph unicode="&#x2002;" horiz-adv-x="1021" />
<glyph unicode="&#x2003;" horiz-adv-x="2043" />
<glyph unicode="&#x2004;" horiz-adv-x="679" />
<glyph unicode="&#x2005;" horiz-adv-x="509" />
<glyph unicode="&#x2006;" horiz-adv-x="339" />
<glyph unicode="&#x2007;" horiz-adv-x="339" />
<glyph unicode="&#x2008;" horiz-adv-x="253" />
<glyph unicode="&#x2009;" horiz-adv-x="407" />
<glyph unicode="&#x200a;" horiz-adv-x="112" />
<glyph unicode="&#x2010;" horiz-adv-x="614" d="M82 530v148h450v-148h-450z" />
<glyph unicode="&#x2011;" horiz-adv-x="614" d="M82 530v148h450v-148h-450z" />
<glyph unicode="&#x2012;" horiz-adv-x="614" d="M82 530v148h450v-148h-450z" />
<glyph unicode="&#x2013;" horiz-adv-x="1024" d="M82 530v148h860v-148h-860z" />
<glyph unicode="&#x2014;" horiz-adv-x="2048" d="M82 530v148h1884v-148h-1884z" />
<glyph unicode="&#x2018;" horiz-adv-x="440" d="M41 1092v129l145 356h121l-74 -356v-129h-192z" />
<glyph unicode="&#x2019;" horiz-adv-x="440" d="M131 1092l74 356v129h192v-129l-145 -356h-121z" />
<glyph unicode="&#x201c;" horiz-adv-x="798" d="M82 1092v129l145 356h123l-74 -356v-129h-194zM440 1092v129l146 356h123l-74 -356v-129h-195z" />
<glyph unicode="&#x201d;" horiz-adv-x="798" d="M90 1092l74 356v129h194v-129l-145 -356h-123zM449 1092l73 356v129h195v-129l-146 -356h-122z" />
<glyph unicode="&#x2026;" horiz-adv-x="1566" d="M1208 0v195h192v-195h-192zM686 0v195h192v-195h-192zM164 0v195h192v-195h-192z" />
<glyph unicode="&#x202f;" horiz-adv-x="407" />
<glyph unicode="&#x2039;" horiz-adv-x="1120" d="M82 573v62l958 461v-166l-663 -326l663 -325v-166z" />
<glyph unicode="&#x203a;" horiz-adv-x="1120" d="M82 113v166l663 325l-663 326v166l958 -461v-62z" />
<glyph unicode="&#x205f;" horiz-adv-x="509" />
<glyph unicode="&#x2122;" horiz-adv-x="2904" d="M1366 0v1485h293l403 -1135l383 1135h297v-1485h-205v1255l-389 -1151h-205l-407 1149v-1253h-170zM20 1331v154h1164v-154h-479v-1331h-205v1331h-480z" />
<glyph unicode="&#xe000;" horiz-adv-x="1085" d="M0 1085h1085v-1085h-1085v1085z" />
<glyph unicode="&#xfb01;" horiz-adv-x="1198" d="M850 0v1085h194v-1085h-194zM850 1290v195h194v-195h-194zM49 940v145h146q2 135 17 224.5t53 159t105.5 101.5t172.5 32q84 0 174 -29v-150q-102 33 -152 33q-43 0 -73.5 -12t-49 -42t-30 -56.5t-16.5 -77.5t-6 -85t-1 -98h195v-145h-195v-940h-194v940h-146z" />
<glyph unicode="&#xfb02;" horiz-adv-x="1198" d="M850 0v1577h194v-1577h-194zM49 940v145h146q2 135 17 224.5t53 159t105.5 101.5t172.5 32q84 0 174 -29v-150q-102 33 -152 33q-43 0 -73.5 -12t-49 -42t-30 -56.5t-16.5 -77.5t-6 -85t-1 -98h195v-145h-195v-940h-194v940h-146z" />
<glyph unicode="&#xfb03;" horiz-adv-x="1894" d="M1547 0v1085h194v-1085h-194zM1547 1290v195h194v-195h-194zM745 940v145h146q2 135 17 224.5t53 159t105.5 101.5t172.5 32q84 0 174 -29v-150q-102 33 -152 33q-43 0 -73.5 -12t-49 -42t-30 -56.5t-16.5 -77.5t-6 -85t-1 -98h195v-145h-195v-940h-194v940h-146zM49 940 v145h146q2 135 17 224.5t53 159t105.5 101.5t172.5 32q84 0 174 -29v-150q-102 33 -152 33q-43 0 -73.5 -12t-49 -42t-30 -56.5t-16.5 -77.5t-6 -85t-1 -98h195v-145h-195v-940h-194v940h-146z" />
<glyph unicode="&#xfb04;" horiz-adv-x="1894" d="M1547 0v1577h194v-1577h-194zM745 940v145h146q2 135 17 224.5t53 159t105.5 101.5t172.5 32q84 0 174 -29v-150q-102 33 -152 33q-43 0 -73.5 -12t-49 -42t-30 -56.5t-16.5 -77.5t-6 -85t-1 -98h195v-145h-195v-940h-194v940h-146zM49 940v145h146q2 135 17 224.5 t53 159t105.5 101.5t172.5 32q84 0 174 -29v-150q-102 33 -152 33q-43 0 -73.5 -12t-49 -42t-30 -56.5t-16.5 -77.5t-6 -85t-1 -98h195v-145h-195v-940h-194v940h-146z" />
</font>
</defs>
</svg>
